Sign up here and you can log into the forum!

Certain AVI Files Choppy after WDLXTV

General WDLXTV-Plus forum

Certain AVI Files Choppy after WDLXTV   

Postby fiendz138 » Mon Aug 25, 2014 8:38 pm

I just loaded 1.05.04_B-WDLXTV-Plus-0.5.1.1 [flash]. Everything went perfectly.

Now I notice that avi files of one tv show are playing choppy. I didn't have issues playing these when on the stock firmware. All other avi files I play are fine.

I am playing the files through a network share. Hardwired to my network.

Any ideas?

Please see the mediainfo to compare:

File that is playing choppy
Code: Select all
General
Complete name                            : \\desktop\movies\\Boardwalk Empire\Season 2\Boardwalk Empire Season 2 Episode 03 - A Dangerous Maid.avi
Format                                   : AVI
Format/Info                              : Audio Video Interleave
File size                                : 551 MiB
Duration                                 : 55mn 44s
Overall bit rate                         : 1 382 Kbps
Director                                 : TSV Productions

Video
ID                                       : 0
Format                                   : MPEG-4 Visual
Format profile                           : Advanced Simple@L5
Format settings, BVOP                    : 2
Format settings, QPel                    : No
Format settings, GMC                     : No warppoints
Format settings, Matrix                  : Default (MPEG)
Muxing mode                              : Packed bitstream
Codec ID                                 : XVID
Codec ID/Hint                            : XviD
Duration                                 : 55mn 44s
Bit rate                                 : 923 Kbps
Width                                    : 720 pixels
Height                                   : 406 pixels
Display aspect ratio                     : 16:9
Frame rate                               : 23.976 fps
Color space                              : YUV
Chroma subsampling                       : 4:2:0
Bit depth                                : 8 bits
Scan type                                : Progressive
Compression mode                         : Lossy
Bits/(Pixel*Frame)                       : 0.132
Stream size                              : 368 MiB (67%)
Writing library                          : XviD 64

Audio
ID                                       : 1
Format                                   : AC-3
Format/Info                              : Audio Coding 3
Mode extension                           : CM (complete main)
Format settings, Endianness              : Big
Codec ID                                 : 2000
Duration                                 : 55mn 44s
Bit rate mode                            : Constant
Bit rate                                 : 448 Kbps
Channel(s)                               : 6 channels
Channel positions                        : Front: L C R, Side: L R, LFE
Sampling rate                            : 48.0 KHz
Bit depth                                : 16 bits
Compression mode                         : Lossy
Stream size                              : 179 MiB (32%)
Alignment                                : Aligned on interleaves
Interleave, duration                     : 32 ms (0.77 video frame)


File that plays without issues
Code: Select all
General
Complete name                            : \\desktop\movies\THE COMEBACK 2005 FULL SEASON LISA KUDROW\The.Comeback.s01e01.avi
Format                                   : AVI
Format/Info                              : Audio Video Interleave
File size                                : 235 MiB
Duration                                 : 32mn 7s
Overall bit rate mode                    : Variable
Overall bit rate                         : 1 022 Kbps
Writing application                      : VirtualDub

Video
ID                                       : 0
Format                                   : MPEG-4 Visual
Format profile                           : Simple@L3
Format settings, BVOP                    : 2
Format settings, QPel                    : No
Format settings, GMC                     : No warppoints
Format settings, Matrix                  : Default (H.263)
Muxing mode                              : Packed bitstream
Codec ID                                 : XVID
Codec ID/Hint                            : XviD
Duration                                 : 32mn 7s
Bit rate                                 : 873 Kbps
Width                                    : 512 pixels
Height                                   : 384 pixels
Display aspect ratio                     : 4:3
Frame rate                               : 29.970 fps
Color space                              : YUV
Chroma subsampling                       : 4:2:0
Bit depth                                : 8 bits
Scan type                                : Progressive
Compression mode                         : Lossy
Bits/(Pixel*Frame)                       : 0.148
Stream size                              : 201 MiB (85%)
Writing library                          : XviD 1.1.0 Beta1 (UTC 2005-01-16)

Audio
ID                                       : 1
Format                                   : MPEG Audio
Format version                           : Version 1
Format profile                           : Layer 3
Mode                                     : Joint stereo
Mode extension                           : MS Stereo
Codec ID                                 : 55
Codec ID/Hint                            : MP3
Duration                                 : 32mn 7s
Bit rate mode                            : Variable
Bit rate                                 : 128 Kbps
Channel(s)                               : 2 channels
Sampling rate                            : 48.0 KHz
Compression mode                         : Lossy
Stream size                              : 30.9 MiB (13%)
Alignment                                : Aligned on interleaves
Interleave, duration                     : 24 ms (0.72 video frame)
Interleave, preload duration             : 437 ms
Writing library                          : LAME3.90.
Encoding settings                        : -m j -V 4 -q 2 -lowpass 17.6 --abr 128

fiendz138
n00b
 
Posts: 13
Joined: Mon Aug 25, 2014 8:18 pm

Re: Certain AVI Files Choppy after WDLXTV   

Postby mad_ady » Mon Aug 25, 2014 10:56 pm

Well, it looks like a network issue. The file that plays choppy has 1.3Mbps bitrate, and the one that plays fine has around 1Mbps bitrate. To rule out any network issues, try to play back the choppy file from a USB drive and see if it is still choppy.

The difference might be in the WDTV base versions (WDLXTV is currently based on 1.05, but latest stock is 1.06), which could translate into differences in samba versions. The long-term solution is to ditch samba and migrate to NFS, which offers better performance (there are guides on the wiki).
User avatar
mad_ady
Developer
 
Posts: 4519
Joined: Fri Nov 05, 2010 9:08 am
Location: Bucharest, Romania

Re: Certain AVI Files Choppy after WDLXTV   

Postby fiendz138 » Tue Aug 26, 2014 4:28 am

Thanks for the info. I will try to use NFS.

I guess I don't completely understand. Why would all other files play correctly but this show is choppy? I went back to the stock firmware and it played fine.

I'm just trying to get a better understanding of this all :?
fiendz138
n00b
 
Posts: 13
Joined: Mon Aug 25, 2014 8:18 pm

Re: Certain AVI Files Choppy after WDLXTV   

Postby mad_ady » Tue Aug 26, 2014 10:37 pm

Well, you'll need to check what mediainfo reports as total bitrate, but my guess is that the shows that play fine have a lower bitrate than the ones that don't play fine. Since you get your media from a network share (over Samba), you are limited to Samba's throughput, which is the worst throughput possible :D (Samba < NFS < DLNA).

Since it works for you with stock firmware, it means that stock firmware has some tweaks/a different version of samba which improves performance. WDLXTV has gone through a lot of changes in the samba code through the time (believe it or not, performance used to be worse), but it seems now the official samba version is better.

Hope this helps you better understand.
User avatar
mad_ady
Developer
 
Posts: 4519
Joined: Fri Nov 05, 2010 9:08 am
Location: Bucharest, Romania

Re: Certain AVI Files Choppy after WDLXTV   

Postby fiendz138 » Wed Aug 27, 2014 4:31 am

Thanks for the explanation.

It makes total sense now :D
fiendz138
n00b
 
Posts: 13
Joined: Mon Aug 25, 2014 8:18 pm


Return to Discussion

Who is online

Users browsing this forum: No registered users and 1 guest