Sign up here and you can log into the forum!

1.05.04_V.WDLXTV_LIVE-0.5.2.2 discussion

General WDLXTV-Live forum

Re: 1.05.04_V.WDLXTV_LIVE-0.5.2.2 discussion   

Postby FRYndel » Fri Feb 19, 2016 2:54 am

Hello! Installed this firmware and installed well! I go through the browser in WD, it asks for the password and username, I drive "wdlxtv", the answer is not the correct login and password, what am I doing wrong and what could be the problem?
FRYndel
n00b
 
Posts: 2
Joined: Fri Feb 19, 2016 2:52 am

Re: 1.05.04_V.WDLXTV_LIVE-0.5.2.2 discussion   

Postby FRYndel » Fri Feb 19, 2016 3:52 am

Sorry, I found the answer to your question in this thread of the forum! Simple I from Russia and I find it hard to read! I appreciate the work done and for this firmware it is very good!
FRYndel
n00b
 
Posts: 2
Joined: Fri Feb 19, 2016 2:52 am

Re: 1.05.04_V.WDLXTV_LIVE-0.5.2.2 discussion   

Postby Hotstepper13 » Sat Apr 16, 2016 8:18 am

Hey guys... i have had some trouble with playing mkv files properly.

In the current case the video starts, sound play but the screen stays black. Because I was on an older version i first upgraded to the latest firmware (flashed) but no luck.
Next war to use OrcaMKVFix again without success.

Here are some fileinfos
Code: Select all
ID                                       : 1
Format                                   : MPEG-4 Visual
Format profile                           : Simple@L1
Format settings, BVOP                    : No
Format settings, QPel                    : No
Format settings, GMC                     : No warppoints
Format settings, Matrix                  : Default (H.263)
Codec ID                                 : V_MPEG4/ISO/ASP
Codec ID/Info                            : Advanced Simple Profile
Duration                                 : 1h 37mn
Bit rate                                 : 900 Kbps
Width                                    : 720 pixels
Height                                   : 304 pixels
Display aspect ratio                     : 2.35:1
Frame rate mode                          : Constant
Frame rate                               : 24.000 fps
Color space                              : YUV
Chroma subsampling                       : 4:2:0
Bit depth                                : 8 bits
Scan type                                : Progressive
Compression mode                         : Lossy
Bits/(Pixel*Frame)                       : 0.171
Stream size                              : 627 MiB (80%)
Writing library                          : Lavc56.13.100
Default                                  : Yes
Forced                                   : Yes


Any hints?

Best regards
Hotstepper13
Hotstepper13
n00b
 
Posts: 3
Joined: Mon Apr 04, 2011 11:19 am

Re: 1.05.04_V.WDLXTV_LIVE-0.5.2.2 discussion   

Postby kulica » Sun Aug 21, 2016 9:49 am

Does anyone know what's so special about this file. The player is unable to play it, however it can play XVID with lower bitrate. Is there some way to update the codecs or is this format over the HW capability (I don't think this is the case, because the same file can be player on an older hacked Samsung E-series TV).

Code: Select all
Video
ID                          : 1
Format                      : MPEG-4 Visual
Format profile              : Advanced Simple@L5
Format settings, BVOP       : 1
Format settings, QPel       : No
Format settings, GMC        : No warppoints
Format settings, Matrix     : Default (H.263)
Codec ID                    : V_MS/VFW/FOURCC / XVID
Codec ID/Hint               : XviD
Duration                    : 1 h 43 min
Bit rate                    : 2 197 kb/s
Width                       : 720 pixels
Height                      : 384 pixels
Display aspect ratio        : 1.85:1
Frame rate mode             : Constant
Frame rate                  : 23.976 (23976/1000) FPS
Original frame rate         : 23.976 (24000/1001) FPS
Color space                 : YUV
Chroma subsampling          : 4:2:0
Bit depth                   : 8 bits
Scan type                   : Progressive
Compression mode            : Lossy
Bits/(Pixel*Frame)          : 0.331
Stream size                 : 1.59 GiB (83%)
Writing library             : XviD 67
Default                     : Yes
Forced                      : No
kulica
WDTVer
 
Posts: 31
Joined: Thu May 26, 2011 12:06 pm

Previous

Return to Discussion

Who is online

Users browsing this forum: No registered users and 1 guest