Sign up here and you can log into the forum!

WDLXTV 0.5.8.1 - doesn't play Open DML AVI files

the place for WDLXTV 1 bugs

WDLXTV 0.5.8.1 - doesn't play Open DML AVI files   

Postby g.carlo » Sun Dec 12, 2010 6:43 pm

Hi, I have a problem with Open DML AVI files: my WD TV with WDLXTV 0.5.8.1 doesn't play them, it tells that file isn't supported.

It doesn't play this file:

Format : AVI
Format/Info : Audio Video Interleave
Format profile : OpenDML
File size : 351 MiB
Duration : 40mn 12s
Overall bit rate : 1 220 Kbps
Writing application : AVI-Mux GUI 1.17.8.3, Feb 16 201019:42:50

Video
ID : 0
Format : MPEG-4 Visual
Format profile : Advanced Simple@L5
Format settings, BVOP : Yes
Format settings, QPel : No
Format settings, GMC : No warppoints
Format settings, Matrix : Default (H.263)
Codec ID : XVID
Codec ID/Hint : XviD
Duration : 40mn 12s
Bit rate : 1 098 Kbps
Width : 624 pixels
Height : 352 pixels
Display aspect ratio : 16:9
Frame rate : 25.000 fps
Color space : YUV
Chroma subsampling : 4:2:0
Bit depth : 8 bits
Scan type : Progressive
Compression mode : Lossy
Bits/(Pixel*Frame) : 0.200
Stream size : 316 MiB (90%)
Writing library : XviD 1.2.1 (UTC 2008-12-04)

Audio
ID : 1
Format : MPEG Audio
Format version : Version 1
Format profile : Layer 3
Mode : Joint stereo
Mode extension : MS Stereo
Codec ID : 55
Codec ID/Hint : MP3
Duration : 40mn 12s
Bit rate mode : Variable
Bit rate : 112 Kbps
Nominal bit rate : 128 Kbps
Channel(s) : 2 channels
Sampling rate : 48.0 KHz
Compression mode : Lossy
Stream size : 32.3 MiB (9%)
Alignment : Aligned on interleaves
Interleave, duration : 24 ms (0.60 video frame)
Interleave, preload duration : 215 ms
Title : VTS_01_1 T80 2_0ch 384Kbps DELAY 0ms
Writing library : LAME3.98r
Encoding settings : -m j -V 4 -q 2 -lowpass 17 --abr 128


It does play this file:

Format : AVI
Format/Info : Audio Video Interleave
File size : 350 MiB
Duration : 42mn 19s
Overall bit rate : 1 157 Kbps
Writing application : transcode-1.0.2

Video
ID : 0
Format : MPEG-4 Visual
Format profile : Advanced Simple@L5
Format settings, BVOP : Yes
Format settings, QPel : No
Format settings, GMC : No warppoints
Format settings, Matrix : Default (H.263)
Codec ID : XVID
Codec ID/Hint : XviD
Duration : 42mn 19s
Bit rate : 1 023 Kbps
Width : 624 pixels
Height : 352 pixels
Display aspect ratio : 16:9
Frame rate : 23.976 fps
Color space : YUV
Chroma subsampling : 4:2:0
Bit depth : 8 bits
Scan type : Progressive
Compression mode : Lossy
Bits/(Pixel*Frame) : 0.194
Stream size : 310 MiB (88%)
Writing library : XviD 1.2.1 (UTC 2008-12-04)

Audio
ID : 1
Format : MPEG Audio
Format version : Version 1
Format profile : Layer 3
Mode : Joint stereo
Mode extension : MS Stereo
Codec ID : 55
Codec ID/Hint : MP3
Duration : 42mn 19s
Bit rate mode : Variable
Bit rate : 56.0 Kbps
Channel(s) : 2 channels
Sampling rate : 48.0 KHz
Bit depth : 16 bits
Compression mode : Lossy
Stream size : 36.9 MiB (11%)
Alignment : Aligned on interleaves
Interleave, duration : 24 ms (0.58 video frame)

Is there any fix? Thanks!
g.carlo
n00b
 
Posts: 1
Joined: Sun Dec 12, 2010 6:19 pm

Return to Bugs

Who is online

Users browsing this forum: No registered users and 1 guest